VideoBoom - Музыкальный Форум

Информация о пользователе

Привет, Гость! Войдите или зарегистрируйтесь.



Video

Сообщений 421 страница 450 из 606

421

BaD_MaX777 написал(а):

1 - N-Tune - Everybody
2 - Die 3.Generation - bitte nicht

а вообще ты где то спрашивал уже про ВИВУ
так вот я собираю клипы с ВИВЫ с 93-го года
прошлого века ... в коллекции много чего есть
(после ЧМ по футболу можем пообщаться на
эту тему если тебе это интересно ... я ничего
не продаю ... только обмены)

Огромное спасибо за помощь! Буду рад пообщаться послеЧМ!

0

422

DNA Feat. Suzanne Vega - Tom's Diner (VHSRip VIVA By lexx256)
https://c.radikal.ru/c33/1806/6f/7bff0cea6d6d.jpg

Скрытый текст:

Для просмотра скрытого текста - войдите или зарегистрируйтесь.

+1

423

Adventures of Stevie V - Dirty cash
https://a.radikal.ru/a01/1806/05/a4499efe1df6.jpg

Скрытый текст:

Для просмотра скрытого текста - войдите или зарегистрируйтесь.

0

424

Maxx - You Can Get It
https://c.radikal.ru/c21/1806/a5/931bb8a21ec3.jpg

Скрытый текст:

Для просмотра скрытого текста - войдите или зарегистрируйтесь.

0

425

DJ Paul Elstak - Rave On (VHSRip E195 By lexx256)
https://c.radikal.ru/c14/1806/b6/ebc4864526f8.jpg

Скрытый текст:

Для просмотра скрытого текста - войдите или зарегистрируйтесь.

0

426

Melanie Thornton - Wonderful Dream (VIVA)
https://d.radikal.ru/d36/1806/46/f44a5ba2a84b.jpg

Скрытый текст:

Для просмотра скрытого текста - войдите или зарегистрируйтесь.

0

427

Scooter - How Mush Is The Fish (МУЗ ТВ VHSRip By Lexx256 & Retro Factory 29.08.1013)
https://b.radikal.ru/b33/1806/72/baaa86d92161.jpg

Скрытый текст:

Для просмотра скрытого текста - войдите или зарегистрируйтесь.

0

428

Cocteau Twins - Heaven Or Las Vegas (Telegenics Version) (1990)
https://a.radikal.ru/a14/1806/74/ea178f139d77.jpg

Скрытый текст:

Для просмотра скрытого текста - войдите или зарегистрируйтесь.

0

429

Celine Dion - On Ne Change Pas (1999) (Melody-TV fr.)

http://i5.imageban.ru/thumbs/2018.06.18/fe3304925307abae1c50bf323b69dee3.jpg

https://mega.nz/#!SsNDGSDa!NLmTAIzgs8ND … IUCF6DeAUY

0

430

Scooter - No Fate [1997]
http://picua.org/img/2018-06/19/3v1rusxv21h4ohg7jetkc0bnk.png
MEGA

0

431

Scooter - Move Your Ass (VHSRip MTV By lexx256)
https://a.radikal.ru/a20/1806/00/4857f5b6b5ec.jpg

Скрытый текст:

Для просмотра скрытого текста - войдите или зарегистрируйтесь.

0

432

now 90s (uk)

http://i1.imageban.ru/thumbs/2018.06.29/13d9061c6d408eb03b87f56b37c69be5.jpg

https://my-files.ru/m6tf7e

+1

433

Comedy Central VIVA_VIVA los 90s 06-24-2018 (SatRip By lexx256)
https://a.radikal.ru/a30/1807/65/3e34d0f6cf83.jpg

Скрытый текст:

Для просмотра скрытого текста - войдите или зарегистрируйтесь.

0

434

Taurin256 написал(а):

Comedy Central VIVA_VIVA los 90s 06-24-2018 (SatRip By lexx256)

странный какой то поток ...
с немецкой вивиы идёт 720х576
с австрийской 544х576
а тут 1024 ... странно не HD (720) и не мпег обычный ...
это кто ж так с потоком извратился ??? ... кто так вещает??
(в субботу было 3или 4 часа а в воскресенье и того более 5-ть или 6
а может и семь часов подряд шло ... )
...
они так скорее всего тест провели ... будут смотреть 90-е
обдолбыши нонешние или им не стоит даже к истокам
возвращаться ... сейчас толко голые жопы да изврат разный
хорошо продаётся ...
...
вот теперь и поглядим что это было разовое действо или
же они всё таки возобновят показ видео из 90-х
... один такой проект уже пробывали пропихнуть
вроде бы РЕТРО Чарт у них назывался ... но он заглох
(и это ещё вроде до продажи их сраному виакому)

0

435

BaD_MaX777

вот инфо файла

General
Complete name               : F:\VHS\VIVA MUSIC VHS-SD-1 (Rip By lexx256)\Comedy Central VIVA_VIVA los 90s 06-24-2018 (SatRip By lexx256).mpg
Format                      : MPEG-PS
File size                   : 5.62 GiB
Duration                    : 3 h 6 min
Overall bit rate mode       : Variable
Overall bit rate            : 4 321 kb/s
Writing library             : (dvd5: Oct 19 2015)

Video
ID                          : 224 (0xE0)
Format                      : MPEG Video
Format version              : Version 2
Format profile              : Main@Main
Format settings             : CustomMatrix / BVOP
Format settings, BVOP       : Yes
Format settings, Matrix     : Custom
Format settings, GOP        : Variable
Format settings, picture st : Frame
Duration                    : 3 h 6 min
Bit rate mode               : Variable
Bit rate                    : 4 043 kb/s
Maximum bit rate            : 15.0 Mb/s
Width                       : 720 pixels
Height                      : 576 pixels
Display aspect ratio        : 16:9
Active Format Description   : Full frame 16:9 image
Frame rate                  : 25.000 FPS
Standard                    : PAL
Color space                 : YUV
Chroma subsampling          : 4:2:0
Bit depth                   : 8 bits
Scan type                   : Interlaced
Scan order                  : Top Field First
Compression mode            : Lossy
Bits/(Pixel*Frame)          : 0.390
Time code of first frame    : 00:00:00:00
Time code source            : Group of pictures header
GOP, Open/Closed            : Open
GOP, Open/Closed of first f : Closed
Stream size                 : 5.26 GiB (94%)
Writing library             : (dvd5: Oct 19 2015)

Audio
ID                          : 192 (0xC0)
Format                      : MPEG Audio
Format version              : Version 1
Format profile              : Layer 2
Duration                    : 3 h 6 min
Bit rate mode               : Constant
Bit rate                    : 192 kb/s
Channel(s)                  : 2 channels
Sampling rate               : 48.0 kHz
Frame rate                  : 41.667 FPS (1152 SPF)
Compression mode            : Lossy
Stream size                 : 256 MiB (4%)

просто плеер так разрешение определил

0

436

Technotronic - Turn It Up (live Promo)
https://c.radikal.ru/c14/1807/11/639eec67ce85.jpg

Скрытый текст:

Для просмотра скрытого текста - войдите или зарегистрируйтесь.

0

437

Technotronic - Turn It Up (live)
https://a.radikal.ru/a20/1807/73/a5e0ff3e244a.jpg

Скрытый текст:

Для просмотра скрытого текста - войдите или зарегистрируйтесь.

0

438

Taurin256 Большое спасибо за залив "Scooter - The Night" [MTV] и "Scooter - Move Your Ass" [MTV] [190MB] :)

0

439

Следующее видео:

"Scooter - Jiga Jiga" [VIVA]

https://s15.postimg.cc/cybud3rd7/zn_O03_O3g_Ls.jpg

0

440

Ice Mc - Think About The Way (MixMash)

http://s9.uploads.ru/6u1ko.jpg

Скрытый текст:

Для просмотра скрытого текста - войдите или зарегистрируйтесь.

+3

441

будем выполнять ваши условия

0

442

http://s9.uploads.ru/WUOvM.jpg

https://yadi.sk/i/ZVDygntH3YxcUk

Отредактировано dasyn (2018-07-09 14:14:37)

+1

443

http://sd.uploads.ru/T8P4Q.jpg

https://yadi.sk/i/OnsdsH5t3YxZdy

+1

444

http://sd.uploads.ru/JnfaT.jpg

https://yadi.sk/i/U6_gBKTb3Yxb37

+2

445

http://s3.uploads.ru/CobO4.jpg

https://yadi.sk/d/cJxbtiTa3YxtsY

0

446

http://s3.uploads.ru/VZnvm.jpg

https://yadi.sk/i/_5cPDI-g3Yxv2U

0

447

http://s7.uploads.ru/QYfsF.jpg

https://yadi.sk/i/gJ_Eo6l03YxwD5

0

448

http://s5.uploads.ru/B8135.jpg
https://yadi.sk/i/TMo7rX9t3Yy6sE

0

449

http://sd.uploads.ru/HAgmq.jpg

https://yadi.sk/i/cvOoThVr3YySVy

0

450

http://s5.uploads.ru/HZO18.jpg

https://yadi.sk/d/fyuYk-Yj3YyaRL

0





© 2000 - 2018 Сервис форумов «LiFeForums»
Создать форум бесплатно | Домен за 149 руб
Разместить рекламу * Пожаловаться на форум * Политика конфиденциальности